#TITLE:Only Want to see you;
#SUBTITLE:Initiate;
#ARTIST:Namolla Family ft Tae In;
#TITLETRANSLIT:;
#SUBTITLETRANSLIT:;
#ARTISTTRANSLIT:;
#CREDIT:;
#BANNER:onlywanttoseeyou-bn.jpg;
#BACKGROUND:;
#LYRICSPATH:;
#CDTITLE:cdtitle.png;
#MUSIC:onlywanttoseeyou.mp3;
#OFFSET:0.040;
#SAMPLESTART:100.000;
#SAMPLELENGTH:12.000;
#SELECTABLE:YES;
#BPMS:0.000=108.000;
#STOPS:;
#BGCHANGES:;
// cache tags:
#FIRSTBEAT:4.000;
#LASTBEAT:300.000;
#SONGFILENAME:Songs/Initiate/onlywanttoseeyou/onlywanttoseeyou.sm;
#HASMUSIC:1;
#HASBANNER:1;
#MUSICLENGTH:171.102;
// end cache tags

//---------------dance-single - ----------------
#NOTES:
     dance-single:
     :
     Hard:
     7:
     0.782,0.855,1.000,0.205,0.874,684.000,203.000,35.000,1020.000,61.000:
0000
0000
0000
0000
,
1111
0000
M001
0M10
01M0
100M
11MM
100M
,
01M0
0M10
1MM1
M010
01M0
100M
11MM
M001
,
MM11
0000
MM11
M001
0M10
01M0
1MM1
010M
,
0M10
M001
M11M
100M
M001
0M10
01M0
0M10
,
M11M
0000
M001
0M10
11MM
0M10
M001
0M10
,
1MM1
0M10
M001
0M10
01M0
100M
0M10
01M0
,
2002
0M10
0M10
0M10
3113
0M10
01M0
100M
,
1111
0000
0101
M001
0M10
M001
11MM
0000
,
MM11
MM01
MM11
MM01
MM11
MM01
MM11
MM01
,
0110
10MM
11MM
10MM
11MM
10MM
11MM
10MM
,
11MM
0000
M100
001M
101M
0000
M10M
0000
M11M
0000
M10M
0000
M11M
0000
M10M
0000
,
101M
M100
001M
M100
M101
0000
M01M
0000
M11M
0000
M01M
0000
M11M
0000
M01M
0000
,
M11M
0000
MMM1
0010
11MM
0000
MMM1
0000
11MM
0000
MMM1
0000
11MM
0000
MMM1
0000
,
11MM
0000
1MMM
0100
MM11
0000
1MMM
0000
MM11
0000
1MMM
0000
MM11
0000
1MMM
0000
,
MM11
0000
M11M
0110
1MM1
0000
M11M
0000
1MM1
0000
M11M
0000
1MM1
0000
M11M
0000
,
1MM1
0000
0000
1MM1
0000
0000
1MM1
0000
0110
0000
1MM1
1MM1
0110
0MM0
1MM1
0000
,
0110
0000
0M01
0M01
M010
M010
010M
010M
10M0
10M0
010M
010M
M011
M000
0M11
0M00
,
0101
0000
0010
0000
M010
M010
010M
010M
10M0
10M0
010M
010M
M011
M000
0M11
0M00
,
1010
0000
1000
M100
M010
M001
M100
M001
M000
M001
M010
M001
M010
M100
M010
M001
,
M000
M100
M001
M010
M100
M001
M100
M010
M1M1
0000
0010
0001
0000
0010
0100
0000
,
10M0
10M0
010M
010M
M010
M010
0M01
0M01
M010
M010
010M
010M
1000
0000
0100
0010
,
M001
M001
0M10
0M10
01M0
01M0
100M
100M
01M0
01M0
0M10
0M10
0001
0000
0010
0000
,
M101
M001
M010
M001
M010
M000
M001
M010
M100
M001
M100
M001
M100
M000
M100
M000
,
M101
0010
100M
0010
1000
010M
M010
000M
1000
0000
MMM1
0000
MM1M
0000
M1MM
0000
,
1MMM
0000
0000
0000
M11M
0000
0MM0
0MM0
1MM1
0MM0
0MM0
0000
0110
0000
1001
0MM0
,
1MM1
0MM0
M001
M000
M011
M000
M010
M000
0110
000M
010M
000M
110M
000M
010M
000M
,
M11M
1000
MM11
0010
M11M
0100
11MM
01M0
,
0010
0000
M001
M000
M011
M000
M010
M000
M11M
000M
010M
000M
110M
000M
010M
000M
,
011M
MMMM
MMMM
MMMM
M11M
MMMM
MMMM
MMMM
1MM1
MMMM
MMMM
MMMM
M11M
0000
M2MM
M0M0
,
M0M1
M0MM
M0M1
M0MM
131M
0000
M01M
M10M
M01M
0000
0M10
0000
M11M
0000
M2MM
M0MM
,
10MM
M0MM
001M
M0MM
131M
0000
1001
0010
110M
0000
M110
0000
0M11
0000
110M
0000
,
M221
M00M
1000
000M
1331
0000
2M02
0000
0M10
0000
01M0
0000
3M13
0000
0100
M00M
,
0110
0000
0010
0000
2112
0MM0
01M0
0MM0
3113
0000
0010
0000
2112
0MM0
3113
0000
,
0101
100M
101M
M01M
0101
M01M
1010
M10M
,
0101
0010
0110
1MMM
M11M
M10M
1MM1
1MM1
,
0010
1M0M
1010
0MM1
0101
1MM0
1010
0MM1
,
1010
0000
0010
0000
1MM1
MMMM
1MMM
MMMM
M11M
MMMM
MM1M
MMMM
1MM1
0000
20M2
0MM0
,
0M10
0MM0
01M0
0MM0
3113
0000
M10M
M01M
M10M
0000
0M10
0000
01M0
0000
0M20
0M00
,
0M01
0M00
1M00
0M00
1M31
0000
0101
1000
0M11
0000
011M
0000
11M0
0000
M011
0000
,
M22M
M00M
100M
M00M
1331
0000
20M2
00M0
0100
0M00
0010
00M0
3103
0000
0M10
0000
,
01M0
0000
M001
0M10
100M
0000
M001
1000
0000
01M0
100M
0010
01M0
0000
010M
0000
,
0M10
0000
0000
0000
M001
M010
M001
M010
M100
M000
M100
M010
M001
M000
M010
0000
,
1000
0000
0000
0000
100M
010M
100M
010M
000M
010M
001M
010M
100M
000M
100M
0000
,
0001
0000
0011
0000
1M00
0M01
1M00
0M01
0M10
1M00
001M
010M
100M
000M
100M
0000
,
0001
0000
M010
M100
M010
M100
M010
M100
M001
M100
M001
M010
M100
M000
M100
0000
,
0001
0000
010M
001M
010M
001M
010M
001M
100M
001M
100M
001M
010M
000M
010M
0000
,
1000
0000
100M
010M
M010
M001
M001
M010
010M
100M
100M
010M
M010
M001
M001
M010
,
010M
010M
010M
M010
M101
M000
011M
000M
101M
000M
M110
M000
M101
M000
110M
000M
,
011M
010M
M010
M010
M001
M001
M010
M010
010M
010M
100M
100M
010M
010M
M010
M000
,
M101
0000
M001
0000
1M00
0000
01M0
0000
001M
0000
00M1
0000
0M10
0000
010M
000M
,
10M0
10M0
010M
010M
M010
M010
0M01
0M01
M010
M010
010M
010M
10M0
00M0
011M
M000
,
M101
0000
100M
0000
0000
0000
01M0
0000
100M
0000
001M
010M
100M
010M
001M
0000
,
M001
0000
0M10
0000
0000
0000
01M0
0000
100M
0000
M100
M010
M001
M010
M100
0000
,
1001
0000
010M
010M
M010
M010
0M01
0M01
M010
M010
010M
010M
10M0
10M0
010M
000M
,
0010
0000
0MM1
0MM1
1MM0
1MM0
0MM1
0MM1
1MM0
1MM0
0MM1
0MM1
1MM0
1MM0
0MM1
0001
,
010M
100M
M010
M001
100M
010M
M001
M010
110M
000M
M101
M000
101M
000M
M101
M000
,
0110
0000
0000
0000
M11M
MMMM
MMMM
MMMM
M11M
MMMM
MMMM
MMMM
M11M
MMMM
M11M
0000
,
1001
M001
100M
M001
100M
M001
0M10
01M0
,
100M
0000
01M0
0000
M001
0000
01M0
100M
,
1001
100M
M001
100M
M001
100M
01M0
0M10
,
M001
0000
0000
0000
100M
0000
0000
0000
M001
0000
0000
0000
01M0
0000
2MMM
0MMM
,
0M1M
0MMM
0M1M
0MMM
31M1
0000
M001
M010
M001
M000
M010
M000
M100
M000
M020
M000
,
M001
M000
M100
M000
1031
M000
M100
M010
M100
0000
100M
000M
010M
000M
001M
0000
,
2MM2
0MM0
01M0
0MM0
3113
0000
M220
M000
0001
000M
100M
M000
M331
0000
10M0
0000
,
0M01
0000
0000
0000
1221
M00M
M00M
M00M
1331
0000
0000
0000
1221
M00M
1331
0000
,
0000
0000
0M01
0M00
0M11
0M00
0M10
0M00
1M1M
000M
010M
000M
110M
000M
100M
000M
,
011M
000M
001M
0M00
1M01
0M00
0M10
000M
110M
000M
M01M
M000
M101
M000
M010
M000
,
M011
M000
M010
000M
101M
000M
010M
000M
110M
000M
100M
000M
101M
000M
010M
M000
,
M011
M000
M010
M000
M110
M000
M100
000M
101M
000M
010M
M000
M011
M000
M010
000M
,
101M
000M
010M
000M
110M
000M
001M
100M
001M
000M
001M
000M
011M
000M
010M
000M
,
110M
000M
010M
000M
011M
000M
001M
000M
M11M
M000
M001
M000
M11M
000M
100M
000M
,
M22M
M00M
100M
M00M
1331
0000
20M2
00M0
0100
0M00
0M10
00M0
31M3
0000
M010
0000
,
2211
00M0
0011
000M
0011
00M0
0011
000M
0011
00M0
0011
000M
0011
00M0
0011
000M
,
0011
00M0
0011
000M
0011
00M0
0011
000M
0011
00M0
0011
000M
0011
00M0
0011
000M
,
3311
0000
0000
0000
;
